Patricia Kaas Artist Overview ... Mon mec à moi. on Rien ne s'arrête (1987 - 2001) Mon mec à moi, 153 videos Play all Top Tracks - Patricia Kaas Patricia Kaas Officiel Relaxing Coffee JAZZ - Cafe Saxophone & Piano Jazz Music for Studying, Work, Sleep - Duration: 2:06:09. Relax Music Recommended for you About File Formats. MP3 is a digital audio format without digital rights management (DRM) technology. Because our MP3s have no DRM, you can play it on any device that supports MP3, even on your iPod! updated a year ago. 30 video. Add to album, Watch the video for Mon mec à moi by Patricia Kaas for free, and see the artwork, lyrics and similar artists. A1 Mon Mec A Moi A2 Venus Des Abribus A3 D'Allemagne A4 Des Mensonges En Musique A5 Un Dernier Blues B1 Quand Jimmy Dit B2 Souvenirs De L'Est B3 Elle Voulait Jouer Cabaret B4 Mademoiselle Chante Le Blues B5 Chanson D'Amour Pas Finie, Discover Mon mec à moi Instrumental MP3 as made famous by Patricia Kaas. Download the best MP3 Karaoke Songs on Karaoke Version. Patricia Kaas Mon Mec A Moi. Skip to main content. This banner text can have markup. ... Patricia_Kaas_Mon_Mec_A_Moi Scanner Internet Archive Python library 1.4.0. plus-circle Add Review. comment. Reviews There are no reviews yet. Be the first one to write a review. 306 Views . DOWNLOAD OPTIONS download 1 file . CINEPACK download. download 1 file, Patricia Kaas - Mon mec à moi, extrait de l'album "Mademoiselle chante le blues" (1988) Category Music; Show more Show less. Loading... Advertisement Autoplay When autoplay is enabled, a suggested video will automatically play next. Up next REM GENRE Pop REM DATE 1990 REM DISCID 5F121D18 REM COMMENT "ExactAudioCopy v0.99pb5" PERFORMER "Patricia Kaas" TITLE "Best 1987-1991" FILE "Patricia Kaas - Best 1987-1991 (1990) [FLAC]\01 - Mon Mec A Moi.wav" WAVE Текст песни Patricia Kaas – "Quand Jimmy Dit". Il a monté son groupe / Il y a deux ans à peine / Un chômeur en déroute / Le fils de la pharmacienne / Un bassiste de Toulouse / Un batteur looké Harlem, На этой странице вы можете бесплатно скачать популярные альбомы и песни Патрисия Каас №51925 в mp3-формате, а также слушать их онлайн. Mon Mec A Moi Download Patricia Kaas - Mademoiselle Chante Le Blues HERE Buy Patricia Kaas - Mademoiselle Chante Le Blues JUST FOR 1.5 $ HERE !!! Listen Patricia Kaas 2007 NEW album Buy this Album on EBay.com for 13.99 $ Buy this album on Amazon.com for 16.99 $ Add to bookmarks:, Ссылки под катом перестали открываться берём отсюда. DOWNLOAD LINKS: Patricia Kaas — 19 Par Patricia Kaas (2009) FLAC Скачать бесплатно Patricia Kaas - Solo в качестве 320 kbps. Возможность слушать песню онлайн и добавить ее к себе в плейлист. ... Mon mec a moi . 1 января 2017 . 9 . 2 . 04:14 . » Patricia Kaas ‎– Romantic Ballads (Compilation) 1998 (Patricia Kaas ‎– Romantic Ballads (Compilation) 1998) Patricia Kaas ‎– Romantic Ballads (Compilation) 1998 Vyacheslav2007, Listen to music from Patricia Kaas like Mon mec à moi, Mademoiselle Chante Le Blues & more. Find the latest tracks, albums, and images from Patricia Kaas. Download Patricia Kaas - Mon Mec A Moi mp3 album free, list of Karaoke Patricia Kaas (4:07), Download Karaoke Mon mec a moi - Patricia Kaas mp3 video for free. Karaoke Patricia Kaas (5.65 MB) song and listen to Karaoke Patricia Kaas popular song on Mp3Juices.} I believe "Mon mec à moi" is just a way of emphasising the ownership in this case (My man to me), meaning that he is hers. As "À moi" is another way of saying "mine". The double-ownership here is just re-enforcing the idea that he is HER man (: So the title and that line in the song would just be "my man", 50+ videos Play all Mix - Patricia Kaas / Sans Toi YouTube Lady Gaga and Bradley Cooper perform Shallow in Las Vegas - Duration: 11:50. lucid311 Recommended for you Listen free to Patricia Kaas – Mademoiselle Chante... (Mon Mec A Moi, Venus Des Abribus and more). 10 tracks (34:23). Discover more music, concerts, videos, and pictures with the largest catalogue online at Last.fm. download Patricia Kaas - The Very Best (2002) (FLAC) Released: 2002 | Track: 17 ... Mon Mec A Moi 02. D'Allemagne 03. Quand Jimmy Oit 04. Mademoiselle Chante Le Blues 05. La Liberte 06. It's A Man's World 07. Hotel Normandy 08. Fatiquee D'Attendre 09. Je Retiens Mon Soufle 10. Jojo 11. Je Te Dis Vois 12. Ceux Qui N'ont Rien 13. Entrer Dans La ..., Download Patricia Kaas mp3. Patricia Kaas download high quality complete mp3 albums. Текст песни Patricia Kaas – "Mademoiselle Chante Le Blues". Y'en a qui élèvent des gosses au fond des HLM / Y'en a qui roulent leur bosse du Brésil en Ukraine / Y'en a qui font la noce du côté d'Angoulême Flac download Patricia Kaas - Mademoiselle Chante (1988/1995) WV (image + .cue) music Lossless Category: Blues Flac Download Music ... Mon Mec A Moi 02. Venus Des Abribus 03. D'Allemagne 04. Des Mensonges En Musique 05. Un Dernier Blues 06. Quand Jimmy Dit 07. Souvenirs De l'Est, 50+ videos Play all Mix - Patricia Kaas - Mon mec à moi (lyrics/paroles) YouTube Patricia Kaas - Mademoiselle chante le blues Paroles/Lyrics - Duration: 5:09. Siana_Desliura 53,612 views Имя файла D:\РАЗДАЧИ\Patricia Kaas-Greatest Hits (1995)\Patricia Kaas - Greatest Hits.wav Пиковый уровень 100.0 % Скорость извлечения 3.5 X Качество диапазона 100.0 % CRC теста 921B7E6B CRC копии 921B7E6B Копирование... OK Ошибок не произошло Find patricia kaas tracks, artists, and albums. Find the latest in patricia kaas music at Last.fm. Find patricia kaas tracks, artists, and albums. Find the latest in patricia kaas music at Last.fm. Playing via Spotify Playing via YouTube. Playback options, Лингво-лаборатория Амальгама: перевод текста песни Mon Mec a Moi группы Patricia Kaas Для корректной работы сайта необходимо включить Javascript в настройках браузера. Filename E:\mtorrent_flac\Patricia Kaas - Tour De Charme (Japan)\Patricia Kaas - Tour de Charme.wav Peak level 100.0 % Extraction speed 1.8 X Range quality 100.0 % Test CRC AEA33F0D Copy CRC AEA33F0D Copy OK No errors occurred AccurateRip summary Track 1 not present in database Track 2 not present in database Track 3 not present in database, "Mon mec à moi" has become a "real popular success" throughout the years. [1] The song was performed during Kaas' concert tours in 1991, 1994 and 1998, and was thus included on the live albums Carnets de scène , Tour de charme and Rendez-vous and also on the singer's best of Rien ne s'arrête and Ma Liberté contre la tienne in a live version. Текст песни Patricia Kaas – "Les Hommes Qui Passent". Les hommes qui passent Maman / M'envoient toujours des cartes postales / Des Bahamas Maman / Les hommes qui passent tout le temps">

Patricia Kaas Mon Mec A Moi Download Itunes


  • Mon mec à moi - Wikipedia
  • Перевод песен Patricia Kaas: перевод песни Mon Mec a Moi ...
  • Patricia Kaas - Mon mec à moi (lyrics/paroles)
  • Patricia Kaas mp3 download - MP3TLA
  • Patricia Kaas Mon Mec A Moi Download Itunes more:


    Mon mec à moi - Wikipedia

    "Mon mec à moi" has become a "real popular success" throughout the years. [1] The song was performed during Kaas' concert tours in 1991, 1994 and 1998, and was thus included on the live albums Carnets de scène , Tour de charme and Rendez-vous and also on the singer's best of Rien ne s'arrête and Ma Liberté contre la tienne in a live version. Текст песни Patricia Kaas – "Les Hommes Qui Passent". Les hommes qui passent Maman / M'envoient toujours des cartes postales / Des Bahamas Maman / Les hommes qui passent tout le temps

    Patricia Kaas / Sans Toi

    50+ videos Play all Mix - Patricia Kaas / Sans Toi YouTube Lady Gaga and Bradley Cooper perform Shallow in Las Vegas - Duration: 11:50. lucid311 Recommended for you Listen free to Patricia Kaas – Mademoiselle Chante... (Mon Mec A Moi, Venus Des Abribus and more). 10 tracks (34:23). Discover more music, concerts, videos, and pictures with the largest catalogue online at Last.fm. download Patricia Kaas - The Very Best (2002) (FLAC) Released: 2002 | Track: 17 ... Mon Mec A Moi 02. D'Allemagne 03. Quand Jimmy Oit 04. Mademoiselle Chante Le Blues 05. La Liberte 06. It's A Man's World 07. Hotel Normandy 08. Fatiquee D'Attendre 09. Je Retiens Mon Soufle 10. Jojo 11. Je Te Dis Vois 12. Ceux Qui N'ont Rien 13. Entrer Dans La ...

    Patricia Kaas - Mon mec à moi

    Patricia Kaas - Mon mec à moi, extrait de l'album "Mademoiselle chante le blues" (1988) Category Music; Show more Show less. Loading... Advertisement Autoplay When autoplay is enabled, a suggested video will automatically play next. Up next REM GENRE Pop REM DATE 1990 REM DISCID 5F121D18 REM COMMENT "ExactAudioCopy v0.99pb5" PERFORMER "Patricia Kaas" TITLE "Best 1987-1991" FILE "Patricia Kaas - Best 1987-1991 (1990) [FLAC]\01 - Mon Mec A Moi.wav" WAVE Текст песни Patricia Kaas – "Quand Jimmy Dit". Il a monté son groupe / Il y a deux ans à peine / Un chômeur en déroute / Le fils de la pharmacienne / Un bassiste de Toulouse / Un batteur looké Harlem

    Mon mec à moi — Patricia Kaas | Last.fm

    Watch the video for Mon mec à moi by Patricia Kaas for free, and see the artwork, lyrics and similar artists. A1 Mon Mec A Moi A2 Venus Des Abribus A3 D'Allemagne A4 Des Mensonges En Musique A5 Un Dernier Blues B1 Quand Jimmy Dit B2 Souvenirs De L'Est B3 Elle Voulait Jouer Cabaret B4 Mademoiselle Chante Le Blues B5 Chanson D'Amour Pas Finie

    patricia kaas вальс скачать бесплатно в mp3 и слушать ...

    Patricia Kaas - вальс компазиція 1 Patricia Kaas (Евровидиние 2009) - France - Patricia Kaas - Et S'il Falliat Le Faire Patricia Kaas - Venus des abribus fr.lyrsense.compatricia_kaasvenus_d 1ok Patricia Kaas • 3sat Festival [2017, Pop, Chanson, HDTV, 720p] ... Mon mec à moi 09. Je voudrais la connaître 10. Adèle 11. Mademoiselle chante le blues 12. Il me dit que je suis belle. Отчёт MediaInfo / BDInfo. ... Download. Скачать раздачу по magnet- ...

    Перевод песен Patricia Kaas: перевод песни Mon Mec a Moi ...

    Лингво-лаборатория Амальгама: перевод текста песни Mon Mec a Moi группы Patricia Kaas Для корректной работы сайта необходимо включить Javascript в настройках браузера. Filename E:\mtorrent_flac\Patricia Kaas - Tour De Charme (Japan)\Patricia Kaas - Tour de Charme.wav Peak level 100.0 % Extraction speed 1.8 X Range quality 100.0 % Test CRC AEA33F0D Copy CRC AEA33F0D Copy OK No errors occurred AccurateRip summary Track 1 not present in database Track 2 not present in database Track 3 not present in database

    Karaoke Patricia Kaas Free Mp3 Download (5.65 MB) - Mp3Juices

    list of Karaoke Patricia Kaas (4:07), Download Karaoke Mon mec a moi - Patricia Kaas mp3 video for free. Karaoke Patricia Kaas (5.65 MB) song and listen to Karaoke Patricia Kaas popular song on Mp3Juices.} I believe "Mon mec à moi" is just a way of emphasising the ownership in this case (My man to me), meaning that he is hers. As "À moi" is another way of saying "mine". The double-ownership here is just re-enforcing the idea that he is HER man (: So the title and that line in the song would just be "my man"

    Mon mec à moi - Instrumental MP3 Karaoke - Patricia Kaas

    Discover Mon mec à moi Instrumental MP3 as made famous by Patricia Kaas. Download the best MP3 Karaoke Songs on Karaoke Version. Patricia Kaas Mon Mec A Moi. Skip to main content. This banner text can have markup. ... Patricia_Kaas_Mon_Mec_A_Moi Scanner Internet Archive Python library 1.4.0. plus-circle Add Review. comment. Reviews There are no reviews yet. Be the first one to write a review. 306 Views . DOWNLOAD OPTIONS download 1 file . CINEPACK download. download 1 file

    Patricia Kaas: Carnets de scène - Music on Google Play

    Carnets de scène is an album recorded by the French artist Patricia Kaas. It was her first live album, and her third album overall. Recorded during the Scène de vie tour, Kaas' first concerts tour, and released in 1991, the album was successful, particularly in France, and was also re-issued as DVD in 2004. Check out Patricia Kaas on Amazon Music. Stream ad-free or purchase CD's and MP3s now on Amazon. ... Amazon Music Unlimited HD Prime Music CDs & Vinyl Download Store Open Web Player MP3 cart Settings > Patricia Kaas Artist Overview ... Mon mec à moi. on Rien ne s'arrête (1987 - 2001) Mon mec à moi

    PATRICIA KAAS – слова, плейлисты и видео | Shazam

    Найди слова лучших песен и альбомов Patricia Kaas — Лучшие треки. Слушай лучшие плейлисты и смотри самые известные видео любимых исполнителей в Shazam! Download it, sing it. ... Mon mec à moi. Patricia Kaas. 1988. $1.99. Mon mec à moi made famous by Patricia Kaas • 1 music track in instrumental version ... Les moulins de mon coeur made famous by Patricia Kaas

    ‎Patricia Kaas on Apple Music

    ‎Chanteuse Patricia Kaas was born in France's Lorraine region, where she began performing as a youth; by age 11, she even held a residency at the Rumpelkammer Club in Sarrebrucken, Germany, over time honing a distinct style updating the French chanson tradition with elements of pop, blues and jazz. S…. Available with an Apple Music ... Piano Bar is the name of the sixth studio album recorded by the French artist Patricia Kaas. It was released in 2002. Although it was less successful in France, a country in which Kaas' albums are generally well-received, it had higher sales and chartings in other countries such as Germany, Russia, USA, UK and Finland. Текст песни Patricia Kaas – "Il Me Dit Que Je Suis Belle". Et quand le temps se lasse / De n'être que tué / Plus une seconde passe / Dans les vies d'uniformité / Quand de peine en méfiance / De larmes en plus jamais

    Patricia Kaas on Spotify

    Patricia Kaas, Category: Artist, Albums: Patricia Kaas, Patricia Kaas (Bonus Tracks Version), Kaas chante Piaf à l'Olympia (Live), Kaas chante Piaf, Patricia Kaas Live, Singles: Hymne à l'amour, Tout confort, Et S'il Fallait Le Faire, Top Tracks: Mon mec à moi, Il me dit que je suis belle (Version album), Les Hommes Qui Passent, If You Go ... Patricia Kaas (born December 5, 1966 in Forbach, France) is a French singer. Kaas is one of the most successful French-speaking singers in the world. Stylistically her music is not classical chanson, but is closer to jazz, comparable with that of Lara Fabian.

    Patricia Kaas - Mon mec à moi (lyrics/paroles)

    50+ videos Play all Mix - Patricia Kaas - Mon mec à moi (lyrics/paroles) YouTube Patricia Kaas - Mademoiselle chante le blues Paroles/Lyrics - Duration: 5:09. Siana_Desliura 53,612 views Имя файла D:\РАЗДАЧИ\Patricia Kaas-Greatest Hits (1995)\Patricia Kaas - Greatest Hits.wav Пиковый уровень 100.0 % Скорость извлечения 3.5 X Качество диапазона 100.0 % CRC теста 921B7E6B CRC копии 921B7E6B Копирование... OK Ошибок не произошло Find patricia kaas tracks, artists, and albums. Find the latest in patricia kaas music at Last.fm. Find patricia kaas tracks, artists, and albums. Find the latest in patricia kaas music at Last.fm. Playing via Spotify Playing via YouTube. Playback options

    Patricia Kaas music, videos, stats, and photos | Last.fm

    Listen to music from Patricia Kaas like Mon mec à moi, Mademoiselle Chante Le Blues & more. Find the latest tracks, albums, and images from Patricia Kaas. Download Patricia Kaas - Mon Mec A Moi mp3 album free

    Patricia Kaas - Kabaret

    153 videos Play all Top Tracks - Patricia Kaas Patricia Kaas Officiel Relaxing Coffee JAZZ - Cafe Saxophone & Piano Jazz Music for Studying, Work, Sleep - Duration: 2:06:09. Relax Music Recommended for you About File Formats. MP3 is a digital audio format without digital rights management (DRM) technology. Because our MP3s have no DRM, you can play it on any device that supports MP3, even on your iPod! updated a year ago. 30 video. Add to album

    Patricia Kaas mp3 download - MP3TLA

    Download Patricia Kaas mp3. Patricia Kaas download high quality complete mp3 albums. Текст песни Patricia Kaas – "Mademoiselle Chante Le Blues". Y'en a qui élèvent des gosses au fond des HLM / Y'en a qui roulent leur bosse du Brésil en Ukraine / Y'en a qui font la noce du côté d'Angoulême Flac download Patricia Kaas - Mademoiselle Chante (1988/1995) WV (image + .cue) music Lossless Category: Blues Flac Download Music ... Mon Mec A Moi 02. Venus Des Abribus 03. D'Allemagne 04. Des Mensonges En Musique 05. Un Dernier Blues 06. Quand Jimmy Dit 07. Souvenirs De l'Est

    Patricia Kaas - 19 Par Patricia Kaas (2009) FLAC :: NoNaMe

    Ссылки под катом перестали открываться берём отсюда. DOWNLOAD LINKS: Patricia Kaas — 19 Par Patricia Kaas (2009) FLAC Скачать бесплатно Patricia Kaas - Solo в качестве 320 kbps. Возможность слушать песню онлайн и добавить ее к себе в плейлист. ... Mon mec a moi . 1 января 2017 . 9 . 2 . 04:14 . » Patricia Kaas ‎– Romantic Ballads (Compilation) 1998 (Patricia Kaas ‎– Romantic Ballads (Compilation) 1998) Patricia Kaas ‎– Romantic Ballads (Compilation) 1998 Vyacheslav2007

    Скачать Песни Патрисия Каас №51925 Бесплатно и слушать ...

    На этой странице вы можете бесплатно скачать популярные альбомы и песни Патрисия Каас №51925 в mp3-формате, а также слушать их онлайн. Mon Mec A Moi Download Patricia Kaas - Mademoiselle Chante Le Blues HERE Buy Patricia Kaas - Mademoiselle Chante Le Blues JUST FOR 1.5 $ HERE !!! Listen Patricia Kaas 2007 NEW album Buy this Album on EBay.com for 13.99 $ Buy this album on Amazon.com for 16.99 $ Add to bookmarks:

    Mon mec à moi - Patricia Kaas (Патрисия Каас) | Текст и ...

    Mon mec à moi Мой парень Il joue avec mon cœur Il triche avec ma vie Il dit des mots menteurs Et moi je crois tout c'qu'il dit Les chansons qu'il me chante Les rêves qu'il fait pour deux C'est comme les bonbons menthe Ça fait du bien quand il pleut Je m'raconte des histoires En écoutant sa voix C'est pas vrai ces histoires Mais moi j'y crois. Enjoy millions of the latest Android apps, games, music, movies, TV, books, magazines & more. Anytime, anywhere, across your devices.

    Patricia Kaas - Mon Mec a Moi

    50+ videos Play all Mix - Patricia Kaas - Mon Mec a Moi YouTube Celine Dion Greatest Hits Full Album - Best Songs of Celine Dion (HQ) [HD] - Duration: 1:50:22. 19xx Music Recommended for you Listen to albums and songs from Patricia Kaas. Join Napster and access full-length songs on your phone, computer or home audio device. updated 11 months ago. 30 video. Add to album

    home page
       article186.php    article187.php    article188.php    article189.php    article190.php    article191.php    article192.php    article193.php    article194.php    article195.php    article196.php    article197.php    article198.php    article199.php    article200.php    article201.php    article202.php    article203.php    article204.php    article205.php    article206.php    article207.php    article208.php    article209.php    article210.php    article211.php    article212.php    article213.php    article214.php    article215.php    article216.php    article217.php    article218.php    article219.php    article220.php    article221.php    article222.php    article223.php    article224.php    article225.php    article226.php    article227.php